<?xml version="1.0" standalone="no"?>
<!DOCTYPE svg PUBLIC "-//W3C//DTD SVG 1.1//EN" "http://www.w3.org/Graphics/SVG/1.1/DTD/svg11.dtd" >
<svg xmlns="http://www.w3.org/2000/svg">
<metadata>Generated by IcoMoon</metadata>
<defs>
<font id="icomoon" horiz-adv-x="1024">
<font-face units-per-em="1024" ascent="960" descent="-64" />
<missing-glyph horiz-adv-x="1024" />
<glyph unicode="&#x20;" horiz-adv-x="512" d="" />
<glyph unicode="&#xe900;" glyph-name="icon-arrow-right" horiz-adv-x="614" d="M0-36.693l88.747-27.307 525.653 512-525.653 512-88.747-27.307 498.347-484.693-498.347-484.693z" />
<glyph unicode="&#xe901;" glyph-name="icon-arrow-right-bread" horiz-adv-x="566" d="M0-39.747l26.947-24.253 538.947 512-538.947 512-26.947-29.642 512-482.358-512-487.747z" />
<glyph unicode="&#xe902;" glyph-name="icon-arrow-right-inverse" d="M235.66 735.562v-533.041h533.041v533.041h-533.041zM401.184 267.047l-11.222 9.819 203.397 192.175-203.397 190.773 11.222 11.222 213.216-201.995-213.216-201.995z" />
<glyph unicode="&#xe903;" glyph-name="icon-facebook" d="M968.145 960h-912.291c-31.030 0-55.855-24.824-55.855-55.855v-912.291c0-31.030 24.824-55.855 55.855-55.855h490.279v397.188h-133.43v155.152h133.43v114.812c0 130.327 80.679 201.697 198.594 201.697 55.855 0 105.503-3.103 117.915-6.206v-139.636h-80.679c-65.164 0-77.576-31.030-77.576-74.473v-99.297h152.048l-18.618-155.152h-133.43v-394.085h260.655c31.030 0 55.855 24.824 55.855 55.855v912.291c3.103 31.030-21.721 55.855-52.752 55.855z" />
<glyph unicode="&#xe904;" glyph-name="icon-facebook-share" d="M768 740.978c0 0-68.267 0-99.556 0-39.822 0-48.356-17.067-48.356-56.889 0-34.133 0-88.178 0-88.178h147.911l-14.222-147.911h-130.844v-512h-221.867v512h-145.067v145.067h145.067c0 0 0 56.889 0 167.822 0 130.844 68.267 199.111 221.867 199.111 25.6 0 145.067 0 145.067 0v-219.022z" />
<glyph unicode="&#xe905;" glyph-name="icon-line-share" d="M1024 522.667c0 234.667-230.4 426.667-512 426.667s-512-192-512-426.667c0-211.2 181.333-388.267 428.8-420.267 17.067-2.133 36.267-10.667 44.8-27.733 4.267-12.8 4.267-32 2.133-46.933 0 0-6.4-36.267-6.4-44.8-2.133-12.8-10.667-51.2 44.8-27.733s294.4 179.2 403.2 305.067v0c70.4 83.2 106.667 168.533 106.667 262.4zM341.333 407.467c0-6.4-4.267-10.667-8.533-10.667h-136.533c-2.133 0-4.267 0-6.4 2.133 0 0 0 0 0 0s0 0 0 0c-2.133 2.133-2.133 4.267-2.133 6.4v0 219.733c0 6.4 4.267 10.667 8.533 10.667h34.133c4.267 0 8.533-4.267 8.533-10.667v-174.933h91.733c4.267 0 8.533-4.267 8.533-10.667v-32zM422.4 407.467c0-6.4-4.267-10.667-8.533-10.667h-34.133c-4.267 0-8.533 4.267-8.533 10.667v217.6c0 6.4 4.267 10.667 8.533 10.667h34.133c4.267 0 8.533-4.267 8.533-10.667v-217.6zM657.067 407.467c0-6.4-4.267-10.667-8.533-10.667h-34.133c0 0-2.133 0-2.133 0s0 0 0 0 0 0 0 0 0 0 0 0 0 0 0 0 0 0 0 0 0 0 0 0 0 0 0 0 0 0 0 0-2.133 2.133-2.133 2.133l-98.133 134.4v-130.133c0-6.4-4.267-10.667-8.533-10.667h-34.133c-4.267 0-8.533 4.267-8.533 10.667v221.867c0 6.4 4.267 10.667 8.533 10.667h34.133c0 0 0 0 0 0s0 0 0 0 0 0 0 0 0 0 0 0 0 0 0 0 0 0 0 0 0 0 0 0 0 0 0 0 0 0 0 0 0 0 0 0 0 0 0 0 0 0 0 0 0 0 0 0 0 0 0 0 0 0 0 0 0 0 0 0 0 0 0 0 0 0 0 0 0 0 0 0l98.133-136.533v130.133c0 6.4 4.267 10.667 8.533 10.667h34.133c4.267 0 8.533-4.267 8.533-10.667v-221.867zM844.8 590.933c0-6.4-4.267-10.667-8.533-10.667h-91.733v-38.4h91.733c4.267 0 8.533-4.267 8.533-10.667v-34.133c0-6.4-4.267-10.667-8.533-10.667h-91.733v-38.4h91.733c4.267 0 8.533-4.267 8.533-10.667v-34.133c0-6.4-4.267-10.667-8.533-10.667h-134.4c-2.133 0-4.267 0-6.4 2.133 0 0 0 0 0 0s0 0 0 0c-2.133 2.133-2.133 4.267-2.133 6.4v0 224c0 2.133 0 4.267 2.133 6.4 0 0 0 0 0 0s0 0 0 0c2.133 2.133 4.267 2.133 6.4 2.133v0h134.4c4.267 0 8.533-4.267 8.533-10.667v-32z" />
<glyph unicode="&#xe906;" glyph-name="icon-mail" d="M1003.52 755.2h-983.040c-10.24 0-20.48-6.827-20.48-20.48v-498.347c0-51.2 47.787-95.573 105.813-95.573h815.787c58.027 0 105.813 44.373 105.813 95.573v498.347c-3.413 13.653-13.653 20.48-23.893 20.48zM983.040 236.373c0-34.133-27.307-58.027-64.853-58.027h-812.373c-34.133 0-64.853 27.307-64.853 58.027v457.387l457.387-348.16c3.413-3.413 6.827-3.413 13.653-3.413 3.413 0 10.24 0 13.653 3.413l354.987 269.653c10.24 6.827 10.24 17.067 3.413 27.307-10.24 6.827-20.48 10.24-30.72 3.413l-341.333-259.413-436.907 331.093h907.947v-481.28z" />
<glyph unicode="&#xe907;" glyph-name="icon-pagetop-arrow" d="M998.969 174.933l25.031 25.031-512 521.102-512-521.102 27.307-25.031 484.693 496.071 486.969-496.071z" />
<glyph unicode="&#xe908;" glyph-name="icon-search" d="M1015.584-12.099l-249.688 249.688c67.332 77.151 106.608 176.745 106.608 286.159 1.403 239.868-194.981 436.252-436.252 436.252-239.868 0-436.252-196.384-436.252-436.252s196.384-436.252 436.252-436.252c109.414 0 209.008 40.679 286.159 106.608l248.285-248.285c5.611-5.611 14.027-8.416 21.041-8.416 8.416 0 15.43 2.805 21.041 8.416 14.027 11.222 14.027 30.86 2.805 42.082zM61.721 523.748c0 207.605 168.329 375.934 375.934 375.934s375.934-168.329 375.934-375.934c0-206.203-168.329-375.934-375.934-375.934s-375.934 168.329-375.934 375.934z" />
<glyph unicode="&#xe909;" glyph-name="icon-tag" d="M1002.057 418.743l-482.743 482.743c-21.943 14.629-43.886 29.257-73.143 43.886-29.257 7.314-51.2 14.629-80.457 14.629h-277.943c-21.943 0-43.886-7.314-58.514-29.257-21.943-14.629-29.257-36.571-29.257-58.514v-277.943c0-21.943 7.314-51.2 14.629-80.457 14.629-29.257 29.257-51.2 43.886-65.829l482.743-482.743c21.943-21.943 43.886-29.257 65.829-29.257s43.886 7.314 58.514 21.943l329.143 329.143c21.943 21.943 29.257 43.886 29.257 65.829s-7.314 43.886-21.943 65.829zM277.943 682.057c-14.629-14.629-36.571-21.943-58.514-21.943-29.257 0-43.886 7.314-65.829 21.943-14.629 14.629-21.943 36.571-21.943 58.514s7.314 43.886 21.943 58.514c21.943 21.943 36.571 29.257 65.829 29.257 21.943 0 43.886-7.314 58.514-21.943 14.629-21.943 21.943-36.571 21.943-65.829 0-21.943-7.314-43.886-21.943-58.514z" />
<glyph unicode="&#xe90a;" glyph-name="icon-twitter-share" d="M1024 752.924c-38.684-15.929-77.369-27.307-120.604-31.858 43.236 25.031 77.369 63.716 93.298 111.502-40.96-22.756-86.471-38.684-134.258-47.787-38.684 36.409-93.298 61.44-152.462 61.44-116.053 0-209.351-91.022-209.351-200.249 0-15.929 2.276-31.858 4.551-45.511-175.218 6.827-329.956 86.471-434.631 209.351-18.204-29.582-27.307-63.716-27.307-102.4 0-70.542 36.409-131.982 93.298-168.391-34.133 0-65.991 9.102-95.573 25.031 0 0 0-2.276 0-2.276 0-97.849 72.818-179.769 168.391-197.973-18.204-4.551-36.409-6.827-54.613-6.827-13.653 0-27.307 2.276-38.684 4.551 27.307-79.644 104.676-138.809 195.698-138.809-72.818-54.613-161.564-86.471-261.689-86.471-15.929 0-34.133 0-50.062 2.276 93.298-56.889 202.524-91.022 323.129-91.022 386.844 0 598.471 307.2 598.471 573.44 0 9.102 0 18.204 0 25.031 38.684 29.582 75.093 65.991 102.4 106.951z" />
<glyph unicode="&#xe90b;" glyph-name="icon-plus" d="M512 960c-281.6 0-512-230.4-512-512s230.4-512 512-512c281.6 0 512 230.4 512 512s-230.4 512-512 512zM512-25.6c-261.12 0-473.6 212.48-473.6 473.6s212.48 473.6 473.6 473.6 473.6-212.48 473.6-473.6c0-261.12-212.48-473.6-473.6-473.6zM768 468.48h-235.52v235.52c0 10.24-7.68 20.48-20.48 20.48-10.24 0-20.48-7.68-20.48-20.48v-235.52h-235.52c-10.24 0-20.48-7.68-20.48-20.48s7.68-20.48 20.48-20.48h235.52v-235.52c0-10.24 7.68-20.48 20.48-20.48 10.24 0 20.48 7.68 20.48 20.48v235.52h235.52c10.24 0 20.48 7.68 20.48 20.48s-10.24 20.48-20.48 20.48z" />
<glyph unicode="&#xe90c;" glyph-name="icon-infinity" horiz-adv-x="1920" d="M1420.8 960c-275.2 0-499.2-230.4-499.2-512 0-243.2-192-448-428.8-448s-428.8 204.8-428.8 448c0 243.2 192 448 435.2 448 83.2 0 166.4-25.6 243.2-76.8 25.6-19.2 44.8-32 64-57.6 12.8-12.8 32-12.8 44.8 0s12.8 32 0 44.8c-25.6 25.6-51.2 44.8-76.8 64-83.2 57.6-179.2 89.6-275.2 89.6-275.2 0-499.2-230.4-499.2-512s224-512 499.2-512c275.2 0 499.2 230.4 499.2 512 0 243.2 192 448 428.8 448s428.8-204.8 428.8-448c0-243.2-192-448-435.2-448-115.2 0-224 44.8-307.2 128-12.8 12.8-32 12.8-44.8 0s-12.8-32 0-44.8c96-96 217.6-147.2 352-147.2 275.2 0 499.2 230.4 499.2 512s-224 512-499.2 512z" />
<glyph unicode="&#xe90d;" glyph-name="icon-minus" d="M512 960c-281.6 0-512-230.4-512-512s230.4-512 512-512c281.6 0 512 230.4 512 512s-230.4 512-512 512zM512-25.6c-261.12 0-473.6 212.48-473.6 473.6s212.48 473.6 473.6 473.6 473.6-212.48 473.6-473.6c0-261.12-212.48-473.6-473.6-473.6zM768 468.48h-512c-10.24 0-20.48-7.68-20.48-20.48s7.68-20.48 20.48-20.48h512c10.24 0 20.48 7.68 20.48 20.48s-10.24 20.48-20.48 20.48z" />
<glyph unicode="&#xe90e;" horiz-adv-x="1072" d="M536.151 960v0l-130.415-391.245h-405.736v-4.83l328.453-236.679-130.415-391.245h4.83l333.283 241.509 333.283-241.509h4.83l-130.415 391.245 328.453 236.679v4.83h-405.736l-130.415 391.245z" />
<glyph unicode="&#xe90f;" horiz-adv-x="1072" d="M536.151 960v0l-130.415-391.245h-405.736v-4.83l328.453-236.679-130.415-391.245h4.83l333.283 241.509v782.491z" />
<glyph unicode="&#xe910;" glyph-name="icon-star" horiz-adv-x="1072" d="M536.151 960v0l-130.415-391.245h-405.736v-4.83l328.453-236.679-130.415-391.245h4.83l333.283 241.509 333.283-241.509h4.83l-130.415 391.245 328.453 236.679v4.83h-405.736l-130.415 391.245z" />
<glyph unicode="&#xe911;" glyph-name="icon-star-none" horiz-adv-x="1072" d="M536.151 960v0l-130.415-391.245h-405.736v-4.83l328.453-236.679-130.415-391.245h4.83l333.283 241.509 333.283-241.509h4.83l-130.415 391.245 328.453 236.679v4.83h-405.736l-130.415 391.245z" />
<glyph unicode="&#xe912;" glyph-name="icon-balloon" horiz-adv-x="1229" d="M1059.84 960h-890.88c-92.16 0-168.96-71.68-168.96-163.84v-522.24c0-92.16 76.8-163.84 168.96-163.84h675.84l138.24-163.84c5.12-5.12 10.24-10.24 20.48-10.24 5.12 0 5.12 0 10.24 0 10.24 5.12 15.36 15.36 15.36 25.6v148.48h35.84c92.16 0 168.96 71.68 168.96 163.84v522.24c-5.12 92.16-81.92 163.84-174.080 163.84zM1177.6 273.92c0-61.44-51.2-117.76-117.76-117.76h-61.44c-15.36 0-25.6-10.24-25.6-25.6v-107.52l-102.4 122.88c-5.12 5.12-10.24 10.24-20.48 10.24h-680.96c-66.56 0-117.76 51.2-117.76 117.76v522.24c0 61.44 51.2 112.64 117.76 112.64h896c61.44 0 112.64-51.2 112.64-112.64v-522.24zM419.84 586.24c-30.72 0-56.32-25.6-56.32-56.32s25.6-56.32 56.32-56.32c30.72 0 56.32 25.6 56.32 56.32 5.12 30.72-20.48 56.32-56.32 56.32zM614.4 586.24c-30.72 0-56.32-25.6-56.32-56.32s25.6-56.32 56.32-56.32c30.72 0 56.32 25.6 56.32 56.32s-25.6 56.32-56.32 56.32zM819.2 586.24c-30.72 0-56.32-25.6-56.32-56.32s25.6-56.32 56.32-56.32c30.72 0 56.32 25.6 56.32 56.32s-25.6 56.32-56.32 56.32z" />
<glyph unicode="&#xe913;" glyph-name="icon-openwindow" d="M976.213 960h-300.373c-27.307 0-47.787-20.48-47.787-47.787s20.48-47.787 47.787-47.787h184.32l-450.56-464.213c-17.067-20.48-17.067-51.2 0-68.267 10.24-10.24 20.48-13.653 34.133-13.653s23.893 3.413 34.133 13.653l450.56 464.213v-191.147c0-27.307 20.48-47.787 47.787-47.787s47.787 20.48 47.787 47.787v307.2c0 27.307-20.48 47.787-47.787 47.787zM781.653 557.227c-27.307 0-47.787-20.48-47.787-47.787v-474.453h-638.293v651.947h491.52c27.307 0 47.787 20.48 47.787 47.787s-20.48 47.787-47.787 47.787h-539.307c-27.307 3.413-47.787-20.48-47.787-44.373v-750.933c0-30.72 20.48-51.2 47.787-51.2h737.28c27.307 0 47.787 20.48 47.787 47.787v525.653c-3.413 23.893-23.893 47.787-51.2 47.787z" />
<glyph unicode="&#xe914;" glyph-name="icon-bike" d="M0 307.2c0-104.96 87.040-192 194.56-192 99.84 0 181.76 71.68 192 166.4h125.44c0 0 0 0 0 0s0 0 0 0c2.56 0 2.56 0 5.12 0 0 0 0 0 2.56 0s2.56 0 5.12 2.56c0 0 0 0 0 0s2.56 0 2.56 2.56c0 0 0 0 2.56 0s2.56 2.56 5.12 2.56l202.24 243.2 15.36-51.2c-69.12-30.72-115.2-97.28-115.2-176.64 0-104.96 87.040-192 194.56-192s194.56 87.040 194.56 192c0 104.96-87.040 192-194.56 192-10.24 0-20.48 0-30.72-2.56l-71.68 235.52h89.6c48.64 0 53.76-35.84 53.76-53.76 0-23.040-20.48-38.4-38.4-38.4-15.36 0-25.6-10.24-25.6-25.6 0-12.8 10.24-25.6 25.6-25.6 48.64 0 89.6 40.96 89.6 89.6 0 51.2-33.28 102.4-104.96 102.4h-158.72l43.52-143.36h-337.92l-33.28 66.56h84.48c15.36 0 25.6 10.24 25.6 25.6 0 12.8-10.24 25.6-25.6 25.6h-179.2c-15.36 0-25.6-10.24-25.6-25.6 0-12.8 10.24-25.6 25.6-25.6h35.84l46.080-89.6-64-125.44c-17.92 10.24-38.4 12.8-61.44 12.8-107.52 0-194.56-87.040-194.56-192zM765.44 435.2l40.96-133.12c2.56-10.24 12.8-17.92 25.6-17.92 2.56 0 5.12 0 7.68 0 12.8 5.12 20.48 17.92 17.92 30.72l-43.52 133.12c5.12 0 10.24 0 15.36 0 79.36 0 143.36-64 143.36-140.8 0-79.36-64-140.8-143.36-140.8s-143.36 64-143.36 140.8c0 56.32 30.72 102.4 79.36 128zM350.72 558.080l117.76-225.28h-81.92c-7.68 56.32-38.4 102.4-84.48 133.12l48.64 92.16zM281.6 419.84c28.16-20.48 48.64-51.2 56.32-87.040h-102.4l46.080 87.040zM714.24 588.8l-197.12-235.52-122.88 235.52h320zM51.2 307.2c0 79.36 64 140.8 143.36 140.8 15.36 0 28.16-2.56 40.96-5.12l-64-122.88c-5.12-7.68-2.56-17.92 0-25.6 5.12-7.68 12.8-12.8 23.040-12.8h140.8c-12.8-66.56-71.68-117.76-140.8-117.76-79.36 2.56-143.36 66.56-143.36 143.36z" />
<glyph unicode="&#xe915;" glyph-name="icon-bus" d="M952.32 727.040v117.76c0 64-194.56 115.2-432.64 115.2s-432.64-51.2-432.64-115.2v-115.2c-48.64-7.68-87.040-48.64-87.040-97.28v-30.72c0-51.2 38.4-92.16 87.040-99.84v-320c0-35.84 17.92-69.12 43.52-92.16v-76.8c0-43.52 35.84-79.36 79.36-79.36h12.8c43.52 0 79.36 35.84 79.36 79.36v51.2h432.64v-51.2c0-43.52 35.84-79.36 79.36-79.36h12.8c43.52 0 79.36 35.84 79.36 79.36v76.8c25.6 20.48 43.52 53.76 43.52 92.16v325.12c40.96 12.8 71.68 51.2 71.68 94.72v28.16c2.56 46.080-28.16 84.48-69.12 97.28zM371.2 878.080h294.4v-81.92h-294.4v81.92zM217.6 130.56c-28.16 0-53.76 23.040-53.76 51.2s23.040 51.2 53.76 51.2c28.16 0 53.76-23.040 53.76-51.2s-25.6-51.2-53.76-51.2zM821.76 130.56c-28.16 0-53.76 23.040-53.76 51.2s23.040 51.2 53.76 51.2c28.16 0 53.76-23.040 53.76-51.2s-23.040-51.2-53.76-51.2zM878.080 384c0-35.84-30.72-66.56-66.56-66.56h-583.68c-35.84 0-66.56 30.72-66.56 66.56v281.6c0 35.84 30.72 66.56 66.56 66.56h586.24c35.84 0 66.56-30.72 66.56-66.56v-281.6z" />
<glyph unicode="&#xe916;" glyph-name="icon-plane" d="M1008.64 419.84l-394.24 212.48c-10.24 5.12-15.36 15.36-15.36 28.16l7.68 148.48c0 0 0 2.56 0 2.56 0 58.88-35.84 122.88-94.72 122.88s-94.72-64-94.72-122.88c0 0 0-2.56 0-2.56l7.68-148.48c0-10.24-5.12-23.040-15.36-28.16l-394.24-212.48c-10.24-5.12-15.36-15.36-15.36-25.6v-38.4c0-20.48 17.92-33.28 38.4-28.16l153.6 40.96v-23.040c0-12.8 10.24-23.040 23.040-23.040s23.040 10.24 23.040 23.040v33.28l58.88 15.36v-48.64c0-12.8 10.24-23.040 23.040-23.040s23.040 10.24 23.040 23.040v58.88c0 0 0 0 0 0l58.88 15.36c17.92 5.12 35.84-7.68 38.4-28.16l15.36-250.88c0-10.24-5.12-20.48-12.8-25.6l-138.24-99.84c-7.68-5.12-12.8-15.36-12.8-23.040v-5.12c0-20.48 20.48-35.84 40.96-28.16l99.84 40.96c15.36 5.12 30.72 0 38.4-12.8 10.24-17.92 28.16-25.6 40.96-25.6 15.36 0 30.72 5.12 40.96 23.040 7.68 12.8 23.040 20.48 38.4 12.8l97.28-38.4c20.48-7.68 40.96 7.68 40.96 28.16v5.12c0 10.24-5.12 17.92-12.8 23.040l-138.24 99.84c-7.68 5.12-12.8 15.36-12.8 25.6l15.36 250.88c0 17.92 20.48 30.72 38.4 28.16l58.88-15.36c0 0 0 0 0 0v-58.88c0-12.8 10.24-23.040 23.040-23.040s23.040 10.24 23.040 23.040v48.64l58.88-15.36v-33.28c0-12.8 10.24-23.040 23.040-23.040s23.040 10.24 23.040 23.040v20.48l153.6-40.96c17.92-5.12 38.4 10.24 38.4 28.16v38.4c2.56 12.8-2.56 23.040-12.8 28.16z" />
<glyph unicode="&#xe917;" glyph-name="icon-train" d="M770.56-5.12h-517.12c-15.36 0-25.6-12.8-25.6-25.6 0-15.36 10.24-25.6 25.6-25.6h514.56c15.36 0 25.6 12.8 25.6 25.6 2.56 12.8-10.24 25.6-23.040 25.6zM911.36-17.92l-107.52 92.16c-2.56 2.56-2.56 2.56-5.12 5.12l-61.44 51.2c51.2 7.68 92.16 53.76 92.16 110.080v601.6c0 46.080-89.6 84.48-217.6 99.84v0c2.56 10.24-7.68 17.92-15.36 17.92h-166.4c-10.24 0-20.48-7.68-20.48-17.92v0c-125.44-12.8-217.6-53.76-217.6-99.84v-604.16c0-56.32 40.96-102.4 92.16-110.080l-61.44-51.2c-2.56-2.56-5.12-2.56-5.12-5.12l-107.52-92.16c-10.24-10.24-12.8-25.6-2.56-35.84 5.12-5.12 12.8-7.68 20.48-7.68 5.12 0 12.8 2.56 15.36 5.12l104.96 87.040h527.36l104.96-87.040c5.12-5.12 10.24-5.12 15.36-5.12 7.68 0 15.36 2.56 20.48 10.24 7.68 10.24 7.68 25.6-5.12 35.84zM378.88 870.4h263.68v-74.24h-263.68v74.24zM250.88 675.84c0 33.28 28.16 61.44 58.88 61.44h399.36c33.28 0 58.88-28.16 58.88-61.44v-256c0-33.28-28.16-61.44-58.88-61.44h-396.8c-33.28 0-58.88 28.16-58.88 61.44v256zM256 235.52c0 25.6 20.48 48.64 46.080 48.64s46.080-20.48 46.080-48.64-20.48-48.64-46.080-48.64-46.080 23.040-46.080 48.64zM309.76 81.92l56.32 46.080h291.84l56.32-46.080h-404.48zM673.28 235.52c0 25.6 20.48 48.64 46.080 48.64s46.080-20.48 46.080-48.64-20.48-48.64-46.080-48.64c-25.6 2.56-46.080 23.040-46.080 48.64z" />
<glyph unicode="&#xe918;" glyph-name="icon-walk" d="M512 770.56c66.56-10.24 122.88 43.52 112.64 110.080-7.68 38.4-38.4 71.68-79.36 76.8-66.56 10.24-122.88-43.52-112.64-110.080 7.68-38.4 40.96-69.12 79.36-76.8zM791.040-5.12l-58.88 230.4c-5.12 20.48-20.48 38.4-20.48 38.4l-87.040 99.84v107.52l81.92-38.4 2.56-2.56c20.48-10.24 46.080-5.12 58.88 12.8 17.92 25.6 7.68 58.88-17.92 71.68l-48.64 23.040-61.44 28.16-17.92 7.68v94.72c0 30.72-35.84 79.36-71.68 79.36 0 0-81.92 0-87.040 0-12.8 0-25.6-5.12-33.28-15.36l-128-128c-7.68-7.68-12.8-20.48-12.8-33.28l2.56-135.68c0-23.040 15.36-43.52 38.4-46.080 30.72-5.12 56.32 17.92 56.32 46.080 0 0 0 87.040 0 99.84 0 15.36 5.12 23.040 10.24 28.16s51.2 51.2 51.2 51.2v-256c0 0-33.28-84.48-43.52-112.64s-20.48-46.080-35.84-66.56c-15.36-20.48-128-168.96-128-168.96-15.36-20.48-10.24-48.64 10.24-66.56 23.040-17.92 58.88-10.24 74.24 10.24 0 0 128 166.4 138.24 181.76 12.8 15.36 28.16 43.52 33.28 61.44 7.68 17.92 30.72 76.8 30.72 76.8v0l7.68 17.92c0 0 66.56-66.56 81.92-84.48 15.36-15.36 23.040-25.6 28.16-48.64 5.12-20.48 48.64-192 48.64-192 5.12-23.040 25.6-35.84 48.64-35.84 5.12 0 10.24 0 15.36 2.56 25.6 10.24 40.96 35.84 33.28 61.44z" />
<glyph unicode="&#xe919;" glyph-name="icon-car" d="M967.68 647.68h-69.12l-10.24 51.2c-17.92 107.52-115.2 184.32-232.96 184.32h-320c-97.28 0-179.2-64-194.56-153.6l-15.36-81.92h-69.12c-30.72 0-56.32-25.6-56.32-56.32v-23.040c0-30.72 25.6-56.32 56.32-56.32h40.96c-28.16-23.040-46.080-58.88-46.080-99.84v-156.16c0-40.96 17.92-74.24 46.080-99.84v-84.48c0-48.64 38.4-87.040 87.040-87.040h12.8c48.64 0 87.040 38.4 87.040 87.040v53.76h458.24v-53.76c0-48.64 38.4-87.040 87.040-87.040h12.8c48.64 0 87.040 38.4 87.040 87.040v84.48c28.16 23.040 46.080 58.88 46.080 99.84v156.16c0 40.96-17.92 76.8-46.080 99.84h40.96c30.72 0 56.32 25.6 56.32 56.32v23.040c-2.56 30.72-28.16 56.32-58.88 56.32zM186.88 335.36c-30.72 0-56.32 25.6-56.32 56.32s25.6 56.32 56.32 56.32c30.72 0 56.32-25.6 56.32-56.32s-23.040-56.32-56.32-56.32zM176.64 540.16c-2.56 0-7.68 0-10.24 0l33.28 181.76c10.24 58.88 66.56 102.4 135.68 102.4h320c87.040 0 161.28-56.32 174.080-133.12l25.6-151.040c-2.56 0-7.68 0-10.24 0h-668.16zM837.12 335.36c-30.72 0-56.32 25.6-56.32 56.32s25.6 56.32 56.32 56.32c30.72 0 56.32-25.6 56.32-56.32s-25.6-56.32-56.32-56.32z" />
<glyph unicode="&#xe91a;" glyph-name="icon-place" d="M680.96 194.56l-46.080-56.32h92.16l58.88-145.92h-547.84l58.88 145.92h92.16l-46.080 56.32h-84.48l-104.96-258.56h716.8l-104.96 258.56zM240.64 386.56l271.36-322.56 271.36 322.56c53.76 61.44 87.040 140.8 87.040 227.84 0 189.44-161.28 345.6-358.4 345.6s-358.4-156.16-358.4-345.6c0-87.040 33.28-166.4 87.040-227.84v0zM512 729.6c66.56 0 120.32-51.2 120.32-117.76s-53.76-117.76-120.32-117.76c-66.56 0-120.32 51.2-120.32 117.76s53.76 117.76 120.32 117.76z" />
</font>
</defs>
</svg>
